Vikram Betaal Ki Rahasya Gaatha | Gaya Hijab Mulan Jameela Ini Dibanjiri Protes Warganet | Dok Ruk Rim Tang15.DVDMS-254 | Стрелок / Shooter [03х01-03 из 13] (2018) WEBRip 720p | Profix Media | HD Justice League (2017)

The.Legacy.of.a.Whitetail.Deer.Hunter.2018.1080p.WEBRip.HEVC.Team...

  • Category Movies
  • Type HEVC/x265
  • Language English
  • Total size 1.0 GB
  • Uploaded By x265mkv1
  • Downloads 29
  • Last checked 1 hour ago
  • Date uploaded 4 hours ago
  • Seeders 1
  • Leechers 5

The Legacy of a Whitetail Deer Hunt...

ComedyAdventureDrama

A star of hunting videos strives to bond with his 12-year-old son on a wilderness trip but learns familial connections can't be forced.

Infohash : C4E6AF0AE77FE9A50D6ACF6C78637ABB21FD5B40



Format                                   : Matroska
Format version                           : Version 4 / Version 2
File size                                : 1.05 GiB
Duration                                 : 1 h 23 min
Overall bit rate                         : 1 802 kb/s
Movie name                               : The.Legacy.of.a.Whitetail.Deer.Hunter.2018.1080p.WEBRip.HEVC.Team-x265mkv
Encoded date                             : UTC 2018-07-08 06:57:16
Writing application                      : mkvmerge v20.0.0 ('I Am The Sun') 64-bit
Writing library                          : libebml v1.3.5 + libmatroska v1.4.8
Attachments                              : thumb.jpg

Video
ID                                       : 1
Format                                   : HEVC
Format/Info                              : High Efficiency Video Coding
Format profile                           : Main [email protected]@Main
Codec ID                                 : V_MPEGH/ISO/HEVC
Duration                                 : 1 h 23 min
Bit rate                                 : 1 608 kb/s
Width                                    : 1 920 pixels
Height                                   : 1 080 pixels
Display aspect ratio                     : 16:9
Frame rate mode                          : Constant
Frame rate                               : 23.976 (24000/1001) FPS
Color space                              : YUV
Chroma subsampling                       : 4:2:0
Bit depth                                : 10 bits
Bits/(Pixel*Frame)                       : 0.032
Stream size                              : 958 MiB (89%)
Writing library                          : x265 2.5+14-2718cb5dd67f:[Windows][GCC 7.1.0][64 bit] 10bit
Default                                  : Yes
Forced                                   : No

Audio
ID                                       : 3
Format                                   : AAC
Format/Info                              : Advanced Audio Codec
Format profile                           : LC
Codec ID                                 : A_AAC-2
Duration                                 : 1 h 23 min
Bit rate                                 : 192 kb/s
Channel(s)                               : 6 channels
Channel positions                        : Front: L C R, Side: L R, LFE
Sampling rate                            : 48.0 kHz
Frame rate                               : 46.875 FPS (1024 SPF)
Compression mode                         : Lossy
Delay relative to video                  : 21 ms
Stream size                              : 114 MiB (11%)
Language                                 : English
Default                                  : Yes
Forced                                   : No

Text
ID                                       : 2
Format                                   : UTF-8
Codec ID                                 : S_TEXT/UTF8
Codec ID/Info                            : UTF-8 Plain Text
Duration                                 : 1 h 21 min
Bit rate                                 : 82 b/s
Count of elements                        : 1365
Stream size                              : 49.8 KiB (0%)
Language                                 : English
Default                                  : No
Forced                                   : No

ScreenShots




Files:

  • The.Legacy.of.a.Whitetail.Deer.Hunter.2018.1080p.WEBRip.HEVC.Team-x265mkv.mkv (1.0 GB)

There are currently no comments. Feel free to leave one :)

Code:

  • udp://tracker.openbittorrent.com:80/announce
  • udp://tracker.opentrackr.org:1337/announce
  • UDP://TRACKER.LEECHERS-PARADISE.ORG:6969/ANNOUNCE
  • UDP://TRACKER.COPPERSURFER.TK:6969/ANNOUNCE
  • UDP://TRACKER.OPENTRACKR.ORG:1337/ANNOUNCE
  • UDP://TRACKER.ZER0DAY.TO:1337/ANNOUNCE
  • UDP://EDDIE4.NL:6969/ANNOUNCE