TAG 2018 Movies HD TS | Beautiful Drea season 14 episode 19 | Télécharger Part 3Management | Vyto Ruginis | Jillian Shea Spaeder

Terminal (2018).720p.H264.italian.english.Ac3-5.1.MIRCrew

  • Category Movies
  • Type HD
  • Language English
  • Total size 1.8 GB
  • Uploaded By robbyrs
  • Downloads 139
  • Last checked 27 minutes ago
  • Date uploaded 6 hours ago
  • Seeders 119
  • Leechers 66

Terminal

ThrillerDrama

In the dark heart of a sprawling, anonymous city, "Terminal" follows the twisting tales of two assassins carrying out a sinister mission, a teacher battling a fatal illness, an enigmatic janitor and a curious waitress leading a dangerous double life. Murderous consequences unravel in the dead of night as their lives all intertwine at the hands of a mysterious criminal mastermind hell-bent on revenge.

Infohash : 7DEAF71CAC0EB3023A2C52EEC0BAD3F95DED055D

Terminal (2018).720p.H264.italian.english.Ac3-5.1.MIRCrew


NO FOUND ONLY ORIGINAL RELEASE



My release is always in double track audio italian and Original audio
for select it use VLC or dvd player home
not use wmp

Terminal (2018)

Quality MIRCrew on HD 720p da 1,8 gb






Scheda:

GENERE: Drammatico, Thriller
ANNO: 2018
REGIA: Vaughn Stein
ATTORI: Margot Robbie, Simon Pegg, Mike Myers, Max Irons, Katarina Cas, Matthew Lewis, Dexter Fletcher, Thomas Turgoose, Nick Moran
PAESE: Gran Bretagna, Hong Kong, Ungheria, USA

Trama:

Nel cuore nero di una città senza nome, Terminale segue le vicende intrecciate di due assassini alle prese con una sinistra missione, di un insegnante alle prese con una malattia terminale, di un misterioso addetto alle pulizie e di una curiosa cameriera che conduce una rischiosa doppia vita

Storyline:

In the dark heart of a sprawling, anonymous city, TERMINAL follows the twisting tales of two assassins carrying out a sinister mission, a teacher battling a fatal illness, an enigmatic ...






Dati file:

[spoiler]
General
Unique ID : 173521583217757325322760672848048488580 (0x828B0A936693ABDC9A6522087C1F0084)
Complete name : Terminal (2018).720p .h264.ita.eng-MIRCrew.mkv
Format : Matroska
Format version : Version 2
File size : 1.80 GiB
Duration : 1h 35mn
Overall bit rate : 2 703 Kbps
Movie name : MIRCrew
Encoded date : UTC 2018-07-06T19:58:20Z
Writing application : mkvmerge v5.4.0 ('Piper') built on Mar 10 2012 13:34:39
Writing library : Lavf55.12.0

Video
ID : 1
Format : AVC
Format/Info : Advanced Video Codec
Format profile : [email protected]
Format settings, CABAC : Yes
Format settings, ReFrames : 4 frames
Codec ID : V_MPEG4/ISO/AVC
Duration : 1h 35mn
Bit rate : 1 900 Kbps
Width : 1 280 pixels
Height : 720 pixels
Display aspect ratio : 16:9
Frame rate mode : Variable / Variable
Frame rate : 23.976 fps
Color space : YUV
Chroma subsampling : 4:2:0
Bit depth : 8 bits
Scan type : Progressive
Bits/(Pixel*Frame) : 0.086
Stream size : 1.21 GiB (67%)
Writing library : x264 core 142 r2479 dd79a61
Encoding settings : cabac=1 / ref=3 / deblock=1:0:0 / analyse=0x3:0x113 / me=hex / subme=7 / psy=1 / psy_rd=1.00:0.00 / mixed_ref=1 / me_range=16 / chroma_me=1 / trellis=1 / 8x8dct=1 / cqm=0 / deadzone=21,11 / fast_pskip=1 / chroma_qp_offset=-2 / threads=3 / lookahead_threads=1 / sliced_threads=0 / nr=0 / decimate=1 / interlaced=0 / bluray_compat=0 / constrained_intra=0 / bframes=3 / b_pyramid=2 / b_adapt=1 / b_bias=0 / direct=1 / weightb=1 / open_gop=0 / weightp=2 / keyint=240 / keyint_min=24 / scenecut=40 / intra_refresh=0 / rc_lookahead=40 / rc=abr / mbtree=1 / bitrate=1900 / ratetol=1.0 / qcomp=0.60 / qpmin=0 / qpmax=69 / qpstep=4 / vbv_maxrate=62500 / vbv_bufsize=78125 / nal_hrd=none / filler=0 / ip_ratio=1.40 / aq=1:1.00
Language : Italian
Default : Yes
Forced : No
Color primaries : BT.709-5, BT.1361, IEC 61966-2-4, SMPTE RP177
Transfer characteristics : BT.709-5, BT.1361
Matrix coefficients : BT.709-5, BT.1361, IEC 61966-2-4 709, SMPTE RP177

Audio #1
ID : 2
Format : AC-3
Format/Info : Audio Coding 3
Mode extension : CM (complete main)
Codec ID : A_AC3
Duration : 1h 35mn
Bit rate mode : Constant
Bit rate : 448 Kbps
Channel(s) : 6 channels
Channel positions : Front: L C R, Side: L R, LFE
Sampling rate : 48.0 KHz
Bit depth : 16 bits
Compression mode : Lossy
Delay relative to video : -117ms
Stream size : 306 MiB (17%)
Title : ita Ac3 5.1
Language : Italian
Default : No
Forced : No

Audio #2
ID : 3
Format : AC-3
Format/Info : Audio Coding 3
Mode extension : CM (complete main)
Codec ID : A_AC3
Duration : 1h 35mn
Bit rate mode : Constant
Bit rate : 384 Kbps
Channel(s) : 6 channels
Channel positions : Front: L C R, Side: L R, LFE
Sampling rate : 48.0 KHz
Bit depth : 16 bits
Compression mode : Lossy
Delay relative to video : -5ms
Stream size : 262 MiB (14%)
Title : eng Ac3 5.1
Language : English
Default : No
Forced : No

Menu
00:00:00.000 : :1
00:09:49.923 : :2
00:21:31.792 : :3
00:34:19.267 : :4
00:44:04.102 : :5
00:58:29.301 : :6
01:11:17.319 : :7
01:21:53.872 : :8
01:32:34.096 : :9




[/spoiler]



Files:

  • Terminal (2018).720p .h264.ita.eng-MIRCrew.mkv (1.8 GB)

There are currently no comments. Feel free to leave one :)

Code:

  • udp://tracker.coppersurfer.tk:6969/announce
  • udp://tracker.torrent.eu.org:451/announce
  • udp://tracker.pirateparty.gr:6969/announce
  • udp://tracker.opentrackr.org:1337/announce
  • udp://tracker.leechers-paradise.org:6969/announce
  • udp://tracker.eddie4.nl:6969/announce
  • udp://shadowshq.yi.org:6969/announce
  • udp://shadowshq.eddie4.nl:6969/announce
  • udp://inferno.demonoid.pw:3391/announce
  • udp://eddie4.nl:6969/announce
  • udp://9.rarbg.to:2730/announce
  • udp://9.rarbg.com:2710/announce
  • udp://9.rarbg.me:2780/announce
  • udp://62.138.0.158:6969/announce
  • udp://151.80.120.114:2710/announce