Mot de passe oublié? | Un Beau Soleil Intrieur FRENCH DVDRIP 2018 | Furia de titanes (2010) 4K Audio Dual Latino-InglesScarica APK | Боевик | Download

Ready Player One (2018).720p.H264.italian.english.Ac3-5.1.sub.NUi...

  • Category Movies
  • Type HD
  • Language English
  • Total size 2.2 GB
  • Uploaded By robbyrs
  • Downloads 19
  • Last checked 1 hour ago
  • Date uploaded 4 hours ago
  • Seeders 51
  • Leechers 94

Ready Player One

AdventureScience FictionAction

When the creator of a popular video game system dies, a virtual contest is created to compete for his fortune.

Infohash : AA4C71A7DF29CAD2740103AE68608E08A1B36E23

Ready Player One (2018).720p.H264.italian.english.Ac3-5.1.sub.NUita.eng-MIRCrew


NO FOUND ONLY ORIGINAL RELEASE


My release is always in double track audio italian and Original audio
for select it use VLC or dvd player home
not use wmp

Ready Player One (2018)

Quality MIRCrew on HD 720p da 2,2 gb





Scheda:

GENERE: Azione, Thriller, Fantascienza
ANNO: 2018
REGIA: Steven Spielberg
ATTORI: Tye Sheridan, Olivia Cooke, Ben Mendelsohn, Lena Waithe, T.J. Miller, Simon Pegg, Mark Rylance, Philip Zhao, Win Morisaki, Hannah John-Kamen, Ralph Ineson, Susan Lynch, Clare Higgins, Perdita Weeks, Julia Nickson
PAESE: USA
DURATA: 140 Min
Trama:

Nel 2045 la terra è diventata un luogo inquinato, funestato da guerre, povertà e crisi energetica. Gli abitanti versano in condizioni precarie, stipati in grossi container spogli, senz'altra evasione che il nostalgico mondo virtuale di OASIS. L'universo ispirato ai ruggenti anni ottanta

Storyline:

In the year 2045, the real world is a harsh place. The only time Wade Watts (Tye Sheridan) truly feels alive is when he escapes to the OASIS, an immersive virtual universe where most of humanity spends their days. In the OASIS, you can go anywhere, do anything, be anyone-the only limits are your own imagination.





Dati file:

[spoiler]
General
Unique ID : 106203807958855499869588990935315020660 (0x4FE61C015976354B4341C93962B47B74)
Complete name : Ready Player One (2018).720p.h264.ita.eng.sub.NUita.eng-MIRCrew\Ready Player One (2018).720p.h264.ita.eng.sub.ita.eng-MIRCrew.mkv
Format : Matroska
Format version : Version 2
File size : 2.18 GiB
Duration : 1h 51mn
Overall bit rate : 2 799 Kbps
Movie name : MIRCrew
Encoded date : UTC 2018-07-07 07:26:34
Writing application : Lavf54.63.100
Writing library : Lavf54.63.100

Video
ID : 1
Format : AVC
Format/Info : Advanced Video Codec
Format profile : [email protected]
Format settings, CABAC : Yes
Format settings, ReFrames : 2 frames
Codec ID : V_MPEG4/ISO/AVC
Duration : 1h 51mn
Bit rate : 1 900 Kbps
Width : 1 280 pixels
Height : 528 pixels
Display aspect ratio : 2.40:1
Frame rate mode : Variable
Frame rate : 23.976 fps
Color space : YUV
Chroma subsampling : 4:2:0
Bit depth : 8 bits
Scan type : Progressive
Bits/(Pixel*Frame) : 0.117
Stream size : 1.44 GiB (66%)
Writing library : x264 core 130 r2273
Encoding settings : cabac=1 / ref=2 / deblock=1:0:0 / analyse=0x1:0x131 / me=hex / subme=7 / psy=1 / psy_rd=1.00:0.00 / mixed_ref=0 / me_range=16 / chroma_me=1 / trellis=1 / 8x8dct=0 / cqm=0 / deadzone=21,11 / fast_pskip=1 / chroma_qp_offset=-2 / threads=3 / lookahead_threads=1 / sliced_threads=0 / nr=0 / decimate=1 / interlaced=0 / bluray_compat=0 / constrained_intra=0 / bframes=3 / b_pyramid=0 / b_adapt=1 / b_bias=0 / direct=3 / weightb=1 / open_gop=0 / weightp=2 / keyint=230 / keyint_min=23 / scenecut=40 / intra_refresh=0 / rc_lookahead=40 / rc=abr / mbtree=1 / bitrate=1900 / ratetol=1.0 / qcomp=0.60 / qpmin=10 / qpmax=69 / qpstep=4 / vbv_maxrate=24000 / vbv_bufsize=24000 / nal_hrd=none / ip_ratio=1.40 / aq=1:1.00
Language : Italian
Default : Yes
Forced : No

Audio #1
ID : 2
Format : AC-3
Format/Info : Audio Coding 3
Mode extension : CM (complete main)
Codec ID : A_AC3
Duration : 1h 51mn
Bit rate mode : Constant
Bit rate : 448 Kbps
Channel(s) : 6 channels
Channel positions : Front: L C R, Side: L R, LFE
Sampling rate : 48.0 KHz
Bit depth : 16 bits
Compression mode : Lossy
Delay relative to video : 1mn 5s
Stream size : 357 MiB (16%)
Language : Italian
Default : No
Forced : No

Audio #2
ID : 3
Format : AC-3
Format/Info : Audio Coding 3
Mode extension : CM (complete main)
Codec ID : A_AC3
Duration : 1h 51mn
Bit rate mode : Constant
Bit rate : 448 Kbps
Channel(s) : 6 channels
Channel positions : Front: L C R, Side: L R, LFE
Sampling rate : 48.0 KHz
Bit depth : 16 bits
Compression mode : Lossy
Delay relative to video : 1mn 5s
Stream size : 357 MiB (16%)
Language : English
Default : No
Forced : No

Menu
00:00:00.000 : :(01)00:00:00:000
00:10:08.232 : :(02)00:10:08:232
00:20:18.258 : :(03)00:20:18:258
00:30:37.627 : :(04)00:30:37:627
00:40:38.269 : :(05)00:40:38:269
00:50:08.964 : :(06)00:50:08:964
01:03:01.778 : :(07)01:03:01:778
01:11:55.269 : :(08)01:11:55:269
01:20:14.726 : :(09)01:20:14:726
01:30:58.327 : :(10)01:30:58:327
01:43:26.742 : :(11)01:43:26:742
01:53:02.150 : :(12)01:53:02:150
02:04:20.161 : :(13)02:04:20:161
02:09:17.249 : :(14)02:09:17:249
02:19:58.014 : :(15)02:19:58:014




[/spoiler]



Files:

Ready Player One (2018).720p.h264.ita.eng.sub.NUita.eng-MIRCrew
  • Ready Player One (2018).720p.h264.ita.eng.sub.ita.eng-MIRCrew.eng.srt (115.4 KB)
  • Ready Player One (2018).720p.h264.ita.eng.sub.ita.eng-MIRCrew.mkv (2.2 GB)
  • Ready Player One (2018).720p.h264.ita.eng.sub.ita.eng-MIRCrew.NUita.srt (115.0 KB)
  • Ready Player One (2018).720p.h264.ita.eng.sub.ita.eng-MIRCrew.srt (2.7 KB)

There are currently no comments. Feel free to leave one :)

Code:

  • udp://tracker.coppersurfer.tk:6969/announce
  • udp://tracker.torrent.eu.org:451/announce
  • udp://tracker.pirateparty.gr:6969/announce
  • udp://tracker.opentrackr.org:1337/announce
  • udp://tracker.leechers-paradise.org:6969/announce
  • udp://tracker.eddie4.nl:6969/announce
  • udp://shadowshq.yi.org:6969/announce
  • udp://shadowshq.eddie4.nl:6969/announce
  • udp://inferno.demonoid.pw:3391/announce
  • udp://eddie4.nl:6969/announce
  • udp://9.rarbg.to:2730/announce
  • udp://9.rarbg.com:2710/announce
  • udp://9.rarbg.me:2780/announce
  • udp://62.138.0.158:6969/announce
  • udp://151.80.120.114:2710/announce