Three Color Fantasy - Romance Full of Life | Blue Dragon | Weekly Idol Episode 219Demolition Man BLuRayRip | Quantum Leap | Dangerous - 6

All the Money in the World(2017)1080p Blu-Ray Rip[DaScubaDude]

  • Category Movies
  • Type HD
  • Language English
  • Total size 2.5 GB
  • Uploaded By dascubadude
  • Downloads 19
  • Last checked 47 minutes ago
  • Date uploaded 13 hours ago
  • Seeders 1
  • Leechers 17

All the Money in the World

CrimeDramaHistoryThriller

The story of the kidnapping of 16-year-old John Paul Getty III and the desperate attempt by his devoted mother to convince his billionaire grandfather Jean Paul Getty to pay the ransom.

Infohash : 2AB6A1494BECB8D5F4CDDB054C5F4D3AD1C0C49D


[youtube]muk33nlCnQk[/youtube]
IMDb Info for this film

General
Complete name : All the Money in the World\All The Money In The World T00-1.m4v
Format : MPEG-4
Format profile : Base Media / Version 2
Codec ID : mp42 (isom/iso2/avc1/mp41)
File size : 2.48 GiB
Duration : 2 h 12 min
Overall bit rate mode : Variable
Overall bit rate : 2 678 kb/s
Movie name : All The Money In The World
Encoded date : UTC 2018-07-11 21:34:38
Tagged date : UTC 2018-07-11 21:34:38
Writing application : HandBrake 1.0.7 2017040900

Video
ID : 1
Format : AVC
Format/Info : Advanced Video Codec
Format profile : [email protected]
Format settings : CABAC / 4 Ref Frames
Format settings, CABAC : Yes
Format settings, RefFrames : 4 frames
Codec ID : avc1
Codec ID/Info : Advanced Video Coding
Duration : 2 h 12 min
Bit rate : 2 511 kb/s
Width : 1 920 pixels
Height : 800 pixels
Display aspect ratio : 2.40:1
Frame rate mode : Variable
Frame rate : 23.976 (24000/1001) FPS
Minimum frame rate : 23.974 FPS
Maximum frame rate : 23.981 FPS
Color space : YUV
Chroma subsampling : 4:2:0
Bit depth : 8 bits
Scan type : Progressive
Bits/(Pixel*Frame) : 0.068
Stream size : 2.33 GiB (94%)
Writing library : x264 core 148 r2708 86b7198
Encoding settings : cabac=1 / ref=2 / deblock=1:0:0 / analyse=0x1:0x111 / me=hex / subme=6 / psy=1 / psy_rd=1.00:0.00 / mixed_ref=1 / me_range=16 / chroma_me=1 / trellis=1 / 8x8dct=0 / cqm=0 / deadzone=21,11 / fast_pskip=1 / chroma_qp_offset=-2 / threads=3 / lookahead_threads=1 / sliced_threads=0 / nr=0 / decimate=1 / interlaced=0 / bluray_compat=0 / constrained_intra=0 / bframes=3 / b_pyramid=2 / b_adapt=1 / b_bias=0 / direct=1 / weightb=1 / open_gop=0 / weightp=1 / keyint=240 / keyint_min=24 / scenecut=40 / intra_refresh=0 / rc_lookahead=30 / rc=crf / mbtree=1 / crf=22.0 / qcomp=0.60 / qpmin=0 / qpmax=69 / qpstep=4 / vbv_maxrate=20000 / vbv_bufsize=25000 / crf_max=0.0 / nal_hrd=none / filler=0 / ip_ratio=1.40 / aq=1:1.00
Encoded date : UTC 2018-07-11 21:34:38
Tagged date : UTC 2018-07-11 21:34:38
Color range : Limited
Color primaries : BT.709
Transfer characteristics : BT.709
Matrix coefficients : BT.709
Menus : 3

Audio
ID : 2
Format : AAC
Format/Info : Advanced Audio Codec
Format profile : LC
Codec ID : mp4a-40-2
Duration : 2 h 12 min
Bit rate mode : Variable
Bit rate : 160 kb/s
Channel(s) : 2 channels
Channel positions : Front: L R
Sampling rate : 48.0 kHz
Frame rate : 46.875 FPS (1024 SPF)
Compression mode : Lossy
Stream size : 152 MiB (6%)
Title : Stereo / Stereo
Language : English
Default : Yes
Alternate group : 1
Encoded date : UTC 2018-07-11 21:34:38
Tagged date : UTC 2018-07-11 21:34:38
Menus : 3

Menu
ID : 3
Codec ID : text
Duration : 2 h 12 min
Language : English
Encoded date : UTC 2018-07-11 21:34:38
Tagged date : UTC 2018-07-11 21:34:38
Menu For : 1,2
00:00:00.000 : Chapter 1
00:10:55.405 : Chapter 2
00:19:10.358 : Chapter 3
00:30:35.584 : Chapter 4
00:39:27.991 : Chapter 5
00:48:36.414 : Chapter 6
00:55:26.073 : Chapter 7
01:05:59.164 : Chapter 8
01:15:27.690 : Chapter 9
01:24:42.244 : Chapter 10
01:28:20.295 : Chapter 11
01:34:54.981 : Chapter 12
01:42:14.170 : Chapter 13
01:48:11.485 : Chapter 14
01:56:07.002 : Chapter 15
02:03:08.131 : Chapter 16
Bit rate mode : VBR

Files:

All the Money in the World
  • screenshot977.jpg (43.6 KB)
  • screenshot973.jpg (51.2 KB)
  • screenshot970.jpg (61.4 KB)
  • screenshot972.jpg (65.3 KB)
  • Read me.rtf (3.7 MB)
  • All The Money In The World T00-1.m4v (2.5 GB)

There are currently no comments. Feel free to leave one :)

Code:

  • udp://tracker.openbittorrent.com:80/announce
  • UDP://TRACKER.LEECHERS-PARADISE.ORG:6969/ANNOUNCE
  • UDP://TRACKER.COPPERSURFER.TK:6969/ANNOUNCE
  • UDP://TRACKER.OPENTRACKR.ORG:1337/ANNOUNCE
  • UDP://TRACKER.ZER0DAY.TO:1337/ANNOUNCE
  • UDP://EDDIE4.NL:6969/ANNOUNCE
  • udp://tracker.opentrackr.org:1337/announce
  • udp://tracker.coppersurfer.tk:6969/announce
  • udp://9.rarbg.to:2710/announce