Wrong Man: Season ... | Love Rain | Countdown ListBraven BluRayRip AC3 5.1 | Darker - Cinquante nuances plus sombres par Christian | Phu Khong Yod Rak

Lupin the Third Dead or Alive (1996) (1080p x265 HEVC 10bit AAC 2...

  • Category Movies
  • Type HEVC/x265
  • Language Japanese
  • Total size 3.2 GB
  • Uploaded By QxR
  • Downloads 22
  • Last checked 35 minutes ago
  • Date uploaded 4 hours ago
  • Seeders 7
  • Leechers 9

Lupin the Third: Dead or Alive

AnimationActionComedy

Lupin has set his sights on a the national treasure of the country of Zufu, placed for safe-keeping on a mysterious floating island by the country's late king. The island's super-intelligent defense mechanism, however, proves to be too much for Lupin, Jigen, and Goemon to handle by themselves. The key seems to be linked to the princess of Zufu, the only surviving member of the royal family. She is held prisoner by Zufu's current ruler, General Headhunter, who recently acquired rule over the country when he secretly pulled a coup d'etat and executed the country's king and prince. When Lupin's gang kidnaps the princess to get hold of the key, they pull in trouble by way of a deadly Zufu police agent named Olèander and a million-dollar bounty placed on Lupin's head by the psychotic Headhunter. Now, Lupin must find a safe way to the treasure, dodging bounty hunters at every turn.

Infohash : 1908577CE5A053722A369410871492D29E5D6F15





Media Information

Code:

General
Format : Matroska
Format version : Version 4 / Version 2
File size : 3.19 GiB
Duration : 1 h 37 min
Overall bit rate : 4 707 kb/s
Movie name : Lupin the Third: Dead or Alive
Encoded date : UTC 2018-07-12 01:55:24
Writing application : mkvmerge v24.0.0 ('Beyond The Pale') 64-bit
Writing library : libebml v1.3.6 + libmatroska v1.4.9

Video
ID : 1
Format : HEVC
Format/Info : High Efficiency Video Coding
Format profile : Main [email protected]@Main
Codec ID : V_MPEGH/ISO/HEVC
Duration : 1 h 37 min
Bit rate : 4 503 kb/s
Width : 1 920 pixels
Height : 1 036 pixels
Display aspect ratio : 1.85:1
Frame rate mode : Constant
Frame rate : 23.976 (24000/1001) FPS
Color space : YUV
Chroma subsampling : 4:2:0
Bit depth : 10 bits
Bits/(Pixel*Frame) : 0.094
Stream size : 3.05 GiB (96%)
Writing library : x265 2.8+23-656b5b442f0b:[Windows][GCC 8.1.0][64 bit] 10bit
Encoding settings : cpuid=1111039 / frame-threads=3 / numa-pools=12 / wpp / no-pmode / no-pme / no-psnr / no-ssim / log-level=2 / input-csp=1 / input-res=1920x1036 / interlace=0 / total-frames=139666 / level-idc=0 / high-tier=1 / uhd-bd=0 / ref=4 / no-allow-non-conformance / no-repeat-headers / annexb / no-aud / no-hrd / info / hash=0 / no-temporal-layers / open-gop / min-keyint=23 / keyint=250 / gop-lookahead=0 / bframes=8 / b-adapt=2 / b-pyramid / bframe-bias=0 / rc-lookahead=80 / lookahead-slices=4 / scenecut=40 / radl=0 / no-intra-refresh / ctu=64 / min-cu-size=8 / no-rect / no-amp / max-tu-size=32 / tu-inter-depth=1 / tu-intra-depth=1 / limit-tu=0 / rdoq-level=2 / dynamic-rd=0.00 / no-ssim-rd / signhide / no-tskip / nr-intra=0 / nr-inter=0 / no-constrained-intra / strong-intra-smoothing / max-merge=3 / limit-refs=3 / limit-modes / me=3 / subme=5 / merange=57 / temporal-mvp / weightp / weightb / no-analyze-src-pics / deblock=-1:-1 / sao / no-sao-non-deblock / rd=4 / no-early-skip / rskip / no-fast-intra / no-tskip-fast / no-cu-lossless / no-b-intra / no-splitrd-skip / rdpenalty=0 / psy-rd=1.00 / psy-rdoq=1.00 / no-rd-refine / no-lossless / cbqpoffs=0 / crqpoffs=0 / rc=crf / crf=20.0 / qcomp=0.60 / qpstep=4 / stats-write=0 / stats-read=0 / ipratio=1.40 / pbratio=1.30 / aq-mode=3 / aq-strength=1.00 / cutree / zone-count=0 / no-strict-cbr / qg-size=32 / no-rc-grain / qpmax=69 / qpmin=0 / no-const-vbv / sar=0 / overscan=0 / videoformat=5 / range=0 / colorprim=2 / transfer=2 / colormatrix=2 / chromaloc=0 / display-window=0 / max-cll=0,0 / min-luma=0 / max-luma=1023 / log2-max-poc-lsb=8 / vui-timing-info / vui-hrd-info / slices=1 / no-opt-qp-pps / no-opt-ref-list-length-pps / no-multi-pass-opt-rps / scenecut-bias=0.00 / no-opt-cu-delta-qp / aq-motion / no-hdr / no-hdr-opt / no-dhdr10-opt / no-idr-recovery-sei / analysis-reuse-level=5 / scale-factor=0 / refine-intra=0 / refine-inter=0 / refine-mv=0 / no-limit-sao / ctu-info=0 / no-lowpass-dct / refine-mv-type=0 / copy-pic=1 / max-ausize-factor=1.0 / no-dynamic-refine / no-single-sei
Default : Yes
Forced : No

Audio
ID : 2
Format : AAC
Format/Info : Advanced Audio Codec
Format profile : LC
Codec ID : A_AAC
Duration : 1 h 37 min
Bit rate : 192 kb/s
Channel(s) : 2 channels
Channel positions : Front: L R
Sampling rate : 48.0 kHz
Frame rate : 46.875 FPS (1024 spf)
Compression mode : Lossy
Delay relative to video : 20 ms
Stream size : 132 MiB (4%)
Language : Japanese
Default : No
Forced : No

Subtitle
ID : 3
Format : PGS
Muxing mode : zlib
Codec ID : S_HDMV/PGS
Codec ID/Info : Picture based subtitle format used on BDs/HD-DVDs
Duration : 1 h 32 min
Bit rate : 24.2 kb/s
Count of elements : 1594
Stream size : 16.0 MiB (0%)
Language : English
Default : No
Forced : No

Menu
00:00:00.000 : en:Chapter 01
00:05:04.304 : en:Chapter 02
00:11:51.043 : en:Chapter 03
00:16:06.715 : en:Chapter 04
00:23:59.396 : en:Chapter 05
00:35:36.342 : en:Chapter 06
00:46:28.494 : en:Chapter 07
00:54:05.283 : en:Chapter 08
00:57:57.807 : en:Chapter 09
01:10:11.332 : en:Chapter 10
01:18:14.189 : en:Chapter 11
01:25:46.057 : en:Chapter 12
01:33:56.714 : en:Chapter 13

Source Information

Code:

Release:
Untouched Bluray


Note From QxR:

Quote:

Whilst we are happy for our releases to be re-posted on a platform we aren't on, please do so in an 'as-is' format. We ask that you do not create a new torrent, include all descriptions you see above including the QxR logo, tags, notes and screenshots. If you'd like to become a permanent poster on a website we don't post to, feel free to get in contact with a QxR member.


Files:

Lupin the Third Dead or Alive (1996) (1080p x265 HEVC 10bit AAC 2.0 Japanese RZeroX)
  • Lupin the Third Dead or Alive (1996) (1080p x265 RZeroX).mkv (3.2 GB)

There are currently no comments. Feel free to leave one :)

Code:

  • udp://tracker.opentrackr.org:1337/announce
  • udp://tracker.coppersurfer.tk:6969/announce
  • udp://tracker.torrent.eu.org:451/announce